Cosmos (1980) Season 1 S01 (1080p BluRay x265 HEVC 10bit AAC 5.1 ...

  • Category TV
  • Type HEVC/x265
  • Language English
  • Total size 17.1 GB
  • Uploaded By QxR
  • Downloads 74
  • Last checked 24 minutes ago
  • Date uploaded 5 hours ago
  • Seeders 20
  • Leechers 874

Infohash : D34958AA37535EC9239991DBC5103FF091763DD2



http://www.imdb.com/title/tt0081846/





Media Information

Code:

General
Format : Matroska
Format version : Version 4 / Version 2
File size : 1.23 GiB
Duration : 1 h 0 min
Overall bit rate : 2 904 kb/s
Movie name : Cosmos D1
Encoded date : UTC 2018-10-29 13:58:02
Writing application : mkvmerge v20.0.0 ('I Am The Sun') 64-bit
Writing library : libebml v1.3.5 + libmatroska v1.4.8
Writing frontend : StaxRip v1.7.0.6

Video
ID : 1
Format : HEVC
Format/Info : High Efficiency Video Coding
Format profile : Main [email protected]@Main
Codec ID : V_MPEGH/ISO/HEVC
Duration : 1 h 0 min
Bit rate : 2 434 kb/s
Width : 1 414 pixels
Height : 1 064 pixels
Display aspect ratio : 4:3
Frame rate mode : Constant
Frame rate : 29.970 (30000/1001) FPS
Color space : YUV
Chroma subsampling : 4:2:0
Bit depth : 10 bits
Bits/(Pixel*Frame) : 0.054
Stream size : 1.03 GiB (84%)
Writing library : x265 2.9+1-169e76b6bbcc:[Windows][MSVC 1900][64 bit] 10bit
Encoding settings : cpuid=1111039 / frame-threads=2 / numa-pools=4 / wpp / no-pmode / no-pme / no-psnr / no-ssim / log-level=2 / input-csp=1 / input-res=1414x1064 / interlace=0 / total-frames=108690 / level-idc=0 / high-tier=1 / uhd-bd=0 / ref=5 / no-allow-non-conformance / no-repeat-headers / annexb / no-aud / no-hrd / info / hash=0 / no-temporal-layers / open-gop / min-keyint=25 / keyint=250 / gop-lookahead=0 / bframes=8 / b-adapt=2 / b-pyramid / bframe-bias=0 / rc-lookahead=60 / lookahead-slices=4 / scenecut=40 / radl=0 / no-intra-refresh / ctu=64 / min-cu-size=8 / no-rect / no-amp / max-tu-size=32 / tu-inter-depth=1 / tu-intra-depth=1 / limit-tu=0 / rdoq-level=2 / dynamic-rd=0.00 / no-ssim-rd / signhide / no-tskip / nr-intra=0 / nr-inter=0 / no-constrained-intra / no-strong-intra-smoothing / max-merge=3 / limit-refs=3 / limit-modes / me=3 / subme=5 / merange=57 / temporal-mvp / weightp / weightb / no-analyze-src-pics / deblock=-3:-3 / no-sao / no-sao-non-deblock / rd=4 / no-early-skip / rskip / no-fast-intra / no-tskip-fast / no-cu-lossless / b-intra / no-splitrd-skip / rdpenalty=0 / psy-rd=1.50 / psy-rdoq=2.00 / no-rd-refine / no-lossless / cbqpoffs=0 / crqpoffs=0 / rc=crf / crf=20.5 / qcomp=0.60 / qpstep=4 / stats-write=0 / stats-read=0 / ipratio=1.40 / pbratio=1.30 / aq-mode=3 / aq-strength=1.00 / cutree / zone-count=0 / no-strict-cbr / qg-size=32 / no-rc-grain / qpmax=69 / qpmin=0 / no-const-vbv / sar=0 / overscan=0 / videoformat=5 / range=0 / colorprim=2 / transfer=2 / colormatrix=2 / chromaloc=0 / display-window=0 / max-cll=0,0 / min-luma=0 / max-luma=1023 / log2-max-poc-lsb=8 / vui-timing-info / vui-hrd-info / slices=1 / no-opt-qp-pps / no-opt-ref-list-length-pps / no-multi-pass-opt-rps / scenecut-bias=0.05 / no-opt-cu-delta-qp / no-aq-motion / no-hdr / no-hdr-opt / no-dhdr10-opt / no-idr-recovery-sei / analysis-reuse-level=5 / scale-factor=0 / refine-intra=0 / refine-inter=0 / refine-mv=0 / no-limit-sao / ctu-info=0 / no-lowpass-dct / refine-mv-type=0 / copy-pic=1 / max-ausize-factor=1.0 / no-dynamic-refine / no-single-sei
Default : Yes
Forced : No

Audio
ID : 2
Format : AAC
Format/Info : Advanced Audio Codec
Format profile : LC
Codec ID : A_AAC
Duration : 1 h 0 min
Bit rate : 468 kb/s
Channel(s) : 6 channels
Channel positions : Front: L C R, Side: L R, LFE
Sampling rate : 48.0 kHz
Frame rate : 46.875 FPS (1024 spf)
Compression mode : Lossy
Delay relative to video : 20 ms
Stream size : 202 MiB (16%)
Language : English
Default : Yes
Forced : No

Menu
00:00:00.000 : en:Chapter 01
00:02:05.892 : en:Chapter 02
00:07:03.990 : en:Chapter 03
00:14:22.094 : en:Chapter 04
00:22:45.797 : en:Chapter 05
00:36:48.439 : en:Chapter 06
00:47:27.778 : en:Chapter 07
00:57:53.403 : en:Chapter 08

Source Information

Code:

Release:
Cosmos (1980) 3xBD50 1080i AVC


Note From QxR:

Quote:

Whilst we are happy for our releases to be re-posted on a platform we aren't on, please do so in an 'as-is' format. We ask that you do not create a new torrent, include all descriptions you see above including the QxR logo, tags, notes and screenshots. If you'd like to become a permanent poster on a website we don't post to, feel free to get in contact with a QxR member.


Files:

Cosmos (1980) Season 1 S01 (1080p x265 HEVC 10bit AAC 5.1 Silence)
  • Cosmos (1980) - S01E01 - The Shores of the Cosmic Ocean (1080p x265 Silence).mkv (1.2 GB)
  • Cosmos (1980) - S01E02 - One Voice in the Cosmic Fugue (1080p x265 Silence).mkv (1.3 GB)
  • Cosmos (1980) - S01E03 - Harmony of the Worlds (1080p x265 Silence).mkv (1.2 GB)
  • Cosmos (1980) - S01E04 - Heaven and Hell (1080p x265 Silence).mkv (1.2 GB)
  • Cosmos (1980) - S01E05 - Blues for a Red Planet (1080p x265 Silence).mkv (1.3 GB)
  • Cosmos (1980) - S01E06 - Travellers' Tales (1080p x265 Silence).mkv (1.2 GB)
  • Cosmos (1980) - S01E07 - The Backbone of Night (1080p x265 Silence).mkv (1.6 GB)
  • Cosmos (1980) - S01E08 - Journeys in Space and Time (1080p x265 Silence).mkv (1.4 GB)
  • Cosmos (1980) - S01E09 - The Lives of the Stars (1080p x265 Silence).mkv (1.1 GB)
  • Cosmos (1980) - S01E10 - The Edge of Forever (1080p x265 Silence).mkv (1.4 GB)
  • Cosmos (1980) - S01E11 - The Persistence of Memory (1080p x265 Silence).mkv (1.4 GB)
  • Cosmos (1980) - S01E12 - Encyclopaedia Galactica (1080p x265 Silence).mkv (1.2 GB)
  • Cosmos (1980) - S01E13 - Who Speaks for Earth (1080p x265 Silence).mkv (1.6 GB)

Comments

Code:

  • udp://tracker.coppersurfer.tk:6969/announce
  • udp://tracker.opentrackr.org:1337/announce
  • udp://tracker.zer0day.to:1337/announce
  • udp://tracker.torrent.eu.org:451/announce
  • udp://tracker.leechers-paradise.org:6969/announce
  • udp://p4p.arenabg.com:1337/announce
  • udp://tracker.internetwarriors.net:1337/announce
SitemapĐi Về Đâu | Kevin Bacon | Pre-lit Fiber Optic 3'~8' Artificial Christmas Tree Led Multicolor Lights &stand Read more | Brochure Audi A6 Limousine en Avant 13 - 9 - 1999 (Nederlands) | Ältere Beiträge