The Grand Tour (73) | El Principe Dragon HDTV | The Ninth PassengerYuuki Yuuna wa Yuushabu Shozoku | Stree (2018) Hindi Full Movie pDVDRip 700MB x264 | Madan no Ou to Vanadis

Nude Nuns with Big Guns (2010) 720P BRRip AC3 x264-BBnRG

  • Category Movies
  • Type h.264/x264
  • Language English
  • Total size 2.0 GB
  • Uploaded By xCiNEMAx
  • Downloads 318
  • Last checked 3 months ago
  • Date uploaded 6 years ago
  • Seeders 0
  • Leechers 0

Nude Nuns With Big Guns

ActionComedyThriller

Upon taking her vows to become a nun, Sister Sarah is abused, brainwashed and drugged into submission by the corrupt clergy. On the verge of death from a lethal dose of drugs, Sister Sarah receives a message from GOD telling her to take vengeance on all those who did her wrong. Armed with God's will and an arsenal of big guns, she dispenses Judgment Day on her former tormentors. When the church hires the merciless motorcycle gang the "Los Muertos" to track down and kill her they soon realize that this SISTER IS ONE BAD MOTHER.

Infohash : CB207DD958404675D8E1012EBBC0F2EE1271058F



=============================================================
[size=large][font=Comic Sans MS]Nude Nuns with Big Guns (2010) 720P BRRip AC3 x264-BBnRG [/font][/size]
=============================================================





http://www.youtube.com/watch?v=jKYVtU7G0IA



Upon taking her vows to become a nun, Sister Sarah is abused, brainwashed and drugged into submission by the corrupt clergy.

=============================================================



Encoder - JWC

Sample included in torrent

If you have anything you think you can offer our group you can contact us at.....

[email protected]

Follow us on Twitter - @BBnRG



OR

JOIN OUR SITE BITBITZ.NET - THIS WAY YOU WILL GET THE RELEASES AS SOON AS THEY ARE RELEASED :)




=============================================================



Format : Matroska
Format version : Version 2
File size : 2.00 GiB
Duration : 1h 31mn
Overall bit rate : 3 115 Kbps
Movie name : NUDE NUNS WITH BIG GUNS BBnRG BITBITZ.NET
Encoded date : UTC 2011-09-29 09:55:26
Writing application : mkvmerge v5.0.0 ('Die Wahre Liebe') built on Sep 25 2011 20:33:49
Writing library : libebml v1.2.2 + libmatroska v1.3.0

Video
ID : 1
Format : AVC
Format/Info : Advanced Video Codec
Format profile : [email protected]
Format settings, CABAC : Yes
Format settings, ReFrames : 2 frames
Muxing mode : Header stripping
Codec ID : V_MPEG4/ISO/AVC
Duration : 1h 31mn
Bit rate : 2 861 Kbps
Width : 1 280 pixels
Height : 720 pixels
Display aspect ratio : 16:9
Frame rate : 23.976 fps
Color space : YUV
Chroma subsampling : 4:2:0
Bit depth : 8 bits
Scan type : Progressive
Bits/(Pixel*Frame) : 0.129
Stream size : 1.83 GiB (92%)
Writing library : x264 core
Color primaries : BT.709-5, BT.1361, IEC 61966-2-4, SMPTE RP177
Transfer characteristics : BT.709-5, BT.1361
Matrix coefficients : BT.709-5, BT.1361, IEC 61966-2-4 709, SMPTE RP177

Audio
ID : 2
Format : AC-3
Format/Info : Audio Coding 3
Mode extension : CM (complete main)
Muxing mode : Header stripping
Codec ID : A_AC3
Duration : 1h 31mn
Bit rate mode : Constant
Bit rate : 192 Kbps
Channel(s) : 6 channels
Channel positions : Front: L C R, Side: L R, LFE
Sampling rate : 48.0 KHz
Bit depth : 16 bits
Compression mode : Lossy
Stream size : 126 MiB (6%)
Language : English


=============================================================










=============================================================



Files:

  • NUDE.NUNS.WITH.BIG.GUNS.720P.BRRIP.AC3.BBnRG.part27.rar (50.0 MB)
  • NUDE.NUNS.WITH.BIG.GUNS.720P.BRRIP.AC3.BBnRG.part28.rar (50.0 MB)
  • NUDE.NUNS.WITH.BIG.GUNS.720P.BRRIP.AC3.BBnRG.part29.rar (50.0 MB)
  • NUDE.NUNS.WITH.BIG.GUNS.720P.BRRIP.AC3.BBnRG.part30.rar (50.0 MB)
  • NUDE.NUNS.WITH.BIG.GUNS.720P.BRRIP.AC3.BBnRG.part26.rar (50.0 MB)
  • NUDE.NUNS.WITH.BIG.GUNS.720P.BRRIP.AC3.BBnRG.part25.rar (50.0 MB)
  • NUDE.NUNS.WITH.BIG.GUNS.720P.BRRIP.AC3.BBnRG.part21.rar (50.0 MB)
  • NUDE.NUNS.WITH.BIG.GUNS.720P.BRRIP.AC3.BBnRG.part22.rar (50.0 MB)
  • NUDE.NUNS.WITH.BIG.GUNS.720P.BRRIP.AC3.BBnRG.part23.rar (50.0 MB)
  • NUDE.NUNS.WITH.BIG.GUNS.720P.BRRIP.AC3.BBnRG.part24.rar (50.0 MB)
  • NUDE.NUNS.WITH.BIG.GUNS.720P.BRRIP.AC3.BBnRG.part31.rar (50.0 MB)
  • NUDE.NUNS.WITH.BIG.GUNS.720P.BRRIP.AC3.BBnRG.part32.rar (50.0 MB)
  • NUDE.NUNS.WITH.BIG.GUNS.720P.BRRIP.AC3.BBnRG.part38.rar (50.0 MB)
  • NUDE.NUNS.WITH.BIG.GUNS.720P.BRRIP.AC3.BBnRG.part39.rar (50.0 MB)
  • NUDE.NUNS.WITH.BIG.GUNS.720P.BRRIP.AC3.BBnRG.part40.rar (50.0 MB)
  • NUDE.NUNS.WITH.BIG.GUNS.720P.BRRIP.AC3.BBnRG.part41.rar (9.4 MB)
  • NUDE.NUNS.WITH.BIG.GUNS.720P.BRRIP.AC3.BBnRG.part37.rar (50.0 MB)
  • NUDE.NUNS.WITH.BIG.GUNS.720P.BRRIP.AC3.BBnRG.part36.rar (50.0 MB)
  • NUDE.NUNS.WITH.BIG.GUNS.720P.BRRIP.AC3.BBnRG.part33.rar (50.0 MB)
  • NUDE.NUNS.WITH.BIG.GUNS.720P.BRRIP.AC3.BBnRG.part34.rar (50.0 MB)
  • NUDE.NUNS.WITH.BIG.GUNS.720P.BRRIP.AC3.BBnRG.part35.rar (50.0 MB)
  • NUDE.NUNS.WITH.BIG.GUNS.720P.BRRIP.AC3.BBnRG.part20.rar (50.0 MB)
  • NUDE.NUNS.WITH.BIG.GUNS.720P.BRRIP.AC3.BBnRG.part19.rar (50.0 MB)
  • NUDE.NUNS.WITH.BIG.GUNS.720P.BRRIP.AC3.BBnRG.part04.rar (50.0 MB)
  • NUDE.NUNS.WITH.BIG.GUNS.720P.BRRIP.AC3.BBnRG.part05.rar (50.0 MB)
  • NUDE.NUNS.WITH.BIG.GUNS.720P.BRRIP.AC3.BBnRG.part06.rar (50.0 MB)
  • NUDE.NUNS.WITH.BIG.GUNS.720P.BRRIP.AC3.BBnRG.part07.rar (50.0 MB)
  • NUDE.NUNS.WITH.BIG.GUNS.720P.BRRIP.AC3.BBnRG.part03.rar (50.0 MB)
  • NUDE.NUNS.WITH.BIG.GUNS.720P.BRRIP.AC3.BBnRG.part02.rar (50.0 MB)
  • NUDE.NUNS.WITH.BIG.GUNS.720P.BRRIP.AC3.BBnRG.jpg (113.6 KB)
  • NUDE.NUNS.WITH.BIG.GUNS.720P.BRRIP.AC3.BBnRG.nfo (6.4 KB)
  • NUDE.NUNS.WITH.BIG.GUNS.720P.BRRIP.AC3.BBnRG.part01.rar (50.0 MB)
  • NUDE.NUNS.WITH.BIG.GUNS.720P.BRRIP.AC3.BBnRG.part08.rar (50.0 MB)
  • NUDE.NUNS.WITH.BIG.GUNS.720P.BRRIP.AC3.BBnRG.part09.rar (50.0 MB)
  • NUDE.NUNS.WITH.BIG.GUNS.720P.BRRIP.AC3.BBnRG.part15.rar (50.0 MB)
  • NUDE.NUNS.WITH.BIG.GUNS.720P.BRRIP.AC3.BBnRG.part16.rar (50.0 MB)
  • NUDE.NUNS.WITH.BIG.GUNS.720P.BRRIP.AC3.BBnRG.part17.rar (50.0 MB)
  • NUDE.NUNS.WITH.BIG.GUNS.720P.BRRIP.AC3.BBnRG.part18.rar (50.0 MB)
  • NUDE.NUNS.WITH.BIG.GUNS.720P.BRRIP.AC3.BBnRG.part14.rar (50.0 MB)
  • NUDE.NUNS.WITH.BIG.GUNS.720P.BRRIP.AC3.BBnRG.part13.rar (50.0 MB)
  • NUDE.NUNS.WITH.BIG.GUNS.720P.BRRIP.AC3.BBnRG.part10.rar (50.0 MB)
  • NUDE.NUNS.WITH.BIG.GUNS.720P.BRRIP.AC3.BBnRG.part11.rar (50.0 MB)
  • NUDE.NUNS.WITH.BIG.GUNS.720P.BRRIP.AC3.BBnRG.part12.rar (50.0 MB)
  • NUDE.NUNS.WITH.BIG.GUNS.720P.BRRIP.AC3.BBnRG.SAMPLE.mkv (30.1 MB)

Comments

Code:

  • http://bitbitz.net/announce.php?passkey=47289641bdb4128e7bd1d02534c8b06b
Sitemap