Episódio 7 | Nummernschild - Kennzeichen Aufkleber - EU Feld in schwarz | Tin Mừng NoelArtus Weichert | Black Panther, Vol. 7 #1B - Artgerm Variant (Wk21) | виталий 72

DRIVE 2011 DVDscr H264 AC3 STAR1

  • Category Movies
  • Type h.264/x264
  • Language English
  • Total size 1.1 GB
  • Uploaded By star1
  • Downloads 371
  • Last checked 3 months ago
  • Date uploaded 6 years ago
  • Seeders 0
  • Leechers 0

Drive

ActionCrimeDramaThriller

A mysterious Hollywood stuntman who moonlights as a getaway driver seems to be trying to escape his shady past as he falls for his neighbor - whose husband is in prison and who's looking after her child alone. Meanwhile, his garage mechanic boss is trying to set up a race team using gangland money, which implicates our driver as he is to be used as the race team's main driver. Our hero gets more than he bargained for when he meets the man who is married to the woman he loves.

Infohash : 65E364288775B3A5117B05CCB1B23D3FA938CA97






SCREENS......








Format : MPEG-4
Format profile : Base Media / Version 2
Codec ID : mp42
File size : 1.13 GiB
Duration : 1h 38mn
Overall bit rate : 1 647 Kbps
Encoded date : UTC 2011-09-27 08:28:16
Tagged date : UTC 2011-09-27 09:31:08
Writing application : HandBrake 0.9.5 2011010300

Video
ID : 1
Format : AVC
Format/Info : Advanced Video Codec
Format profile : High*L3.0
Format settings, CABAC : Yes
Format settings, ReFrames : 4 frames
Codec ID : avc1
Codec ID/Info : Advanced Video Coding
Duration : 1h 38mn
Bit rate mode : Variable
Bit rate : 1 036 Kbps
Width : 720 pixels
Height : 320 pixels
Display aspect ratio : 2.25:1
Frame rate mode : Variable
Frame rate : 23.976 fps
Minimum frame rate : 19.182 fps
Maximum frame rate : 23.981 fps
Color space : YUV
Chroma subsampling : 4:2:0
Bit depth : 8 bits
Scan type : Progressive
Bits/(Pixel*Frame) : 0.188
Stream size : 729 MiB (63%)
Writing library : x264 core 112
Encoded date : UTC 2011-09-27 08:28:16
Tagged date : UTC 2011-09-27 09:31:08
Color primaries : BT.601-6 525, BT.1358 525, BT.1700 NTSC, SMPTE 170M
Transfer characteristics : BT.709-5, BT.1361
Matrix coefficients : BT.601-6 525, BT.1358 525, BT.1700 NTSC, SMPTE 170M

Audio #1
ID : 2
Format : AAC
Format/Info : Advanced Audio Codec
Format profile : LC
Codec ID : 40
Duration : 1h 38mn
Bit rate mode : Variable
Bit rate : 158 Kbps
Maximum bit rate : 338 Kbps
Channel(s) : 2 channels
Channel positions : Front: L R
Sampling rate : 48.0 KHz
Compression mode : Lossy
Stream size : 111 MiB (10%)
Encoded date : UTC 2011-09-27 08:28:16
Tagged date : UTC 2011-09-27 09:31:07

Audio #2
ID : 3
Format : AC-3
Format/Info : Audio Coding 3
Mode extension : CM (complete main)
Codec ID : ac-3
Duration : 1h 38mn
Bit rate mode : Constant
Bit rate : 448 Kbps
Channel(s) : 6 channels
Channel positions : Front: L C R, Side: L R, LFE
Sampling rate : 48.0 KHz
Bit depth : 16 bits
Compression mode : Lossy
Stream size : 315 MiB (27%)
Encoded date : UTC 2011-09-27 08:28:16
Tagged date : UTC 2011-09-27 09:31:07

TRACKERS......

Code:

udp://tracker.1337x.org:80/announce

http://9.rarbg.com:2710/announce

http://tracker.novalayer.org:6969/announce

http://cpleft.com:2710/announce

http://pow7.com:80/announce

http://tracker.blazing.de:80/announce

http://tracker.publicbt.com/announce

http://tracker.token.ro:80/announce



INFO HASH...... 65E364288775B3A5117B05CCB1B23D3FA938CA97



GREETZ 2 ALL............................

Files:

  • bsbt_nfo.txt (5.9 KB)
  • drive 2011 h264 AC3 star1.m4v (1.1 GB)

There are currently no comments. Feel free to leave one :)

Code:

  • udp://tracker.1337x.org:80/announce
  • http://9.rarbg.com:2710/announce
  • http://tracker.novalayer.org:6969/announce
  • http://cpleft.com:2710/announce
  • http://pow7.com:80/announce
  • http://tracker.blazing.de:80/announce
  • http://tracker.publicbt.com/announce
  • http://tracker.token.ro:80/announce
Sitemap