The Obsidian Curse | épisode 8 | HD The Jungle BookTeen Titans Go S05E10 Quantum Fun 1080p WEB-DL AAC2 0 H 264-YFN | Glasslip BD Sub Indo Batch Eps 1-13 Lengkap | [Apple Macintosh] Counter Strike: Source [ENG] [Cider port] Подробнее... Залито: 16-04-2011 16:53 (6484 просмотра) [Apple Macintosh] Counter Strike: Source [ENG] [Cider port] Игры для других платформ Counter-Strike: Source (CSS) последнее обновление Counter-Strike от Valve. Это полный порт Counter-Strike, на нашумевший новый движок Valve — Source. Представьте себе оригинальный CS, с графикой и физикой уровня 2004 года. CSS будет бесплатно поставляться вместе с Half-Life 2. Благодаря возможностям... Раздают: 0 Качают: 0 Размер: 3.13GB

Shanthi (Tamil 2011) 18+ Hot movie VCDRip 350MB [email protected]

  • Category Movies
  • Type h.264/x264
  • Language Hindi
  • Total size 348.8 MB
  • Uploaded By demon89
  • Downloads 11066
  • Last checked 3 months ago
  • Date uploaded 6 years ago
  • Seeders 0
  • Leechers 0

Infohash : 1EA038EE048C9B76CF7021624D27718925B1632B







-------------------------------------------------------------------------------------------------------
-------------------------------------------------------------------------------------------------------

LIKE US @ FACEBOOK



1. http://urlgator.com/efyQx [MastiTorrentsReleasers]

2. http://urlgator.com/FG4tl [MastiTorrents]


[OR]


Search for "MastiTorrentsReleasers" and "MastiTorrents"



We are waiting for you!!!



-------------------------------------------------------------------------------------------------------
-------------------------------------------------------------------------------------------------------







description:


Quote:


Cast : Magha Adithya,Archana
Music : Sam
Cinematography :
Producer : Tamil Selvan
Direction : Murali Vishwa
Release Date : June 2011

Plot
Shanthi Appuram Nithya, 2011 Hot and Sexy Tamil movie scheduled to release on Jun 03, 2011 after several delays from Apr 08, and then Apr 15. and now to Jun 10, a Soft Porn movie. Already some scene of the movie released on Youtube. Hot making scene without audio. Movie directed by Murali Vishwa. Magha Adithya & Archana in lead role.


Rating : 4/5

Quote:
General

Complete name : D:\Santhi Appuram Nithya -Tamil - 2011 - Hot movie - VCDRip - 350MB -TDM -MTR-.mkv
Format : Matroska
Format version : Version 2
File size : 349 MiB
Duration : 1h 36mn
Overall bit rate : 507 Kbps
Movie name : Santhi Appuram Nithya - TDM -MTR- - Converted
Encoded date : UTC 2011-09-29 04:50:01
Writing application : mkvmerge v4.6.0 ('Still Crazy After All These Years') built on Mar 10 2011 02:50:32
Writing library : libebml v1.2.0 + libmatroska v1.1.0

Video
ID : 1
Format : AVC
Format/Info : Advanced Video Codec
Format profile : [email protected]
Format settings, CABAC : Yes
Format settings, ReFrames : 3 frames
Format settings, GOP : N=1
Codec ID : V_MPEG4/ISO/AVC
Duration : 1h 36mn
Bit rate mode : Variable
Bit rate : 378 Kbps
Maximum bit rate : 25.0 Mbps
Width : 608 pixels
Height : 256 pixels
Display aspect ratio : 2.40:1
Frame rate : 25.000 fps
Color space : YUV
Chroma subsampling : 4:2:0
Bit depth : 8 bits
Scan type : Progressive
Bits/(Pixel*Frame) : 0.097
Stream size : 254 MiB (73%)
Writing library : x264 core 114 r1924 08d04a4
Encoding settings : cabac=1 / ref=3 / deblock=1:0:0 / analyse=0x3:0x133 / me=umh / subme=7 / psy=1 / psy_rd=1.00:0.00 / mixed_ref=1 / me_range=16 / chroma_me=1 / trellis=1 / 8x8dct=1 / cqm=0 / deadzone=21,11 / fast_pskip=1 / chroma_qp_offset=-2 / threads=6 / sliced_threads=0 / nr=0 / decimate=1 / interlaced=0 / constrained_intra=0 / bframes=3 / b_pyramid=0 / b_adapt=1 / b_bias=0 / direct=1 / weightb=1 / open_gop=0 / weightp=2 / keyint=250 / keyint_min=25 / scenecut=40 / intra_refresh=0 / rc_lookahead=40 / rc=2pass / mbtree=1 / bitrate=378 / ratetol=1.0 / qcomp=0.60 / qpmin=0 / qpmax=69 / qpstep=4 / cplxblur=20.0 / qblur=0.5 / vbv_maxrate=25000 / vbv_bufsize=25000 / nal_hrd=vbr / ip_ratio=1.40 / aq=1:1.00

Audio
ID : 2
Format : MPEG Audio
Format version : Version 1
Format profile : Layer 3
Mode : Joint stereo
Mode extension : MS Stereo
Codec ID : A_MPEG/L3
Codec ID/Hint : MP3
Duration : 1h 36mn
Bit rate mode : Constant
Bit rate : 128 Kbps
Channel(s) : 2 channels
Sampling rate : 44.1 KHz
Compression mode : Lossy
Stream size : 88.1 MiB (25%)
Writing library : LAME3.97


Quote:


Source : Dholga - thanks

Ripper : TheDarkMaster -TDM-









Screens/Covers:
















Files:

  • Santhi Appuram Nithya (Tamil 2011) 18+ Hot movie VCDRip x264 Mp3 350MB TDM -=MTR=- mastitorrents.mkv (348.8 MB)
  • (www.mastitorrents.com).txt (0.6 KB)
  • -=MTR=- [Masti Torrents Releasers].txt (0.2 KB)
  • Catch Us On Facebook.txt (0.1 KB)

There are currently no comments. Feel free to leave one :)

Code:

  • http://www.mastitorrents.com:30303/announce
  • udp://tracker.openbittorrent.com:80
  • http://tracker.publicbt.com:80/announce
  • http://tracker.publicbt.com/announce
  • http://tracker.token.ro:80/announce
  • http://10.rarbg.com/announce
  • http://t1.pow7.com/announce
  • http://10.rarbg.com:80/announce
  • http://pow7.com:80/announce
  • http://tracker.blazing.d :80/announce
  • http://tracker.istole.it:80/announce
  • http://tracker.csze.com/announce
  • http://tracker.csze.com:80/announce
  • http://tracker.thepiratebay.org/announce
  • udp://tracker.1337x.org:80/announce
  • http://exodus.desync.com:6969/announce
  • http://9.rarbg.com:2710/announce
  • http://exodus.desync.com/announce
  • http://tracker.istole.it/announce
  • http://tracker.torrent.to:2710/announce
  • http://tracker.novalayer.org:6969/announce
  • http://fr33dom.h33t.com:3310/announce
Sitemap